• Chicago Pd S01e01 1080p Or 1080i

    chicago pd s01e01 1080p or 1080i

     

    Chicago Pd S01e01 1080p Or 1080i -> http://bit.ly/2nHxEeq

     

     

     

     

     

     

     

     

     

     

     

     

     

     

     

     

     

     

     

     

     

     

     

     

     

     

     

     

     

     

     

     

     

     

     

     

     

     

     

     

     

     

     

     

     

     

     

     

     

    Chicago Pd S01e01 1080p Or 1080i, manchester united hd wallpapers 1080p 2014 tax

     

    .Advertising [ remove ] isoHunt IncChicago PD S01 Season 1 Complete 1080p WEB DL DD5 1 H 264 Torrents Video Tv 23.91 Gb found 2 years ago seeders:11 leechers:12 your vote: real: 1 fake: 0 screenshots Images are auto generated please report any inapropriate images .No trollingLimit ASCII artAdd a commentName:Please login or sign up first to post a comment.Comment:(No adverts, URLs or anything bad allowedTorrent Trackers Hash: 72cd3aab41a4fb86fc2d8b5b9ed2956f6bbcc9c6 Chicago.PD.S01E01.720p.HDTV.x264-DIMENSION.srt.torrentChicago.PD.S01E01.720p.HDTV.x264-DIMENSION.srt50.12 KBStatus:All the torrents in this section have been verified by our verification system LoadingFILE LISTToggle navigation Torrents Anime torrents Software torrents Games torrents Adult torrents Movies torrents Music torrents Other torrents Series & TV torrents Books torrents Latest Torrents Releases Searches Hot Torrents FAQ Movies charts Forum Contacts Upload torrent Sign up Log in Advanced search Welcome back isoHunter! Isohunt on facebook Advertising [ remove ] Browse All Torrents Series & tv Chicago PD S03E01 1080p WEB-DL x265 HEVC AAC 5.1 Condo Chicago PD Full description Chicago PD S03E01 1080p WEB-DL x265 HEVC AAC 5.1 Condo Size352.995 MB 0seeders Added2015-10-19 08:01:03 Download torrent Stream torrent Starting You need BitLord! Get it from BitLord.com 10 To download or stream you need BitLordUser Feedback 10-17-14, 07:24 AM #8 pavilion3000 Apprentice Join Date: Jul 2011 Posts: 298 FP links are dead.any chance in reuploading please? thanks Add your site Search ^^./BT.Chicago.PD.S03E01.1080p.WEB-DL.x265.HEVC.AAC.5.1.Condo.mkv 352.995 MB Gathering some info

     

    Get RSS feed Privacy Policy TORRENT SUMMARY/BTAnd there's the Intelligence Unit, the team that combats the city's major offenses - organized crime, drug trafficking, high profile murders and beyondTime.After.Time.US.S01E05.720p.HDTV.X264-DIMENSION.chs.eng1.mp4.torrent485.63 MBTime After Time US S01E06 2016 720p BrRip x264 - DIMENSION.torrent313.97 MBArrow S05E13 720p HDTV X264-DIMENSION.torrent682.54 MBDCs Legends of Tomorrow S02E16 720p HDTV x264-DIMENSION.torrent861.99 MBZoo.S02E11.720p.HDTV.X264-DIMENSION.chs.eng.mp4.torrent492.99 MBDimension.404.S01E01.Matchmaker.WEBRip.x264.RMTeam.mkv.torrent145.44 MBwww.torrenting.com - Dimension.404.S01E02.Polybius.720p.HULU.WEBRip.AAC2.0.H.264-RTN.torrent749.13 MBDimension.404.S01E02.Polybius.HULU.WEBRip.x264-RBB.mp4.torrent226.45 MBDCs.Legends.of.Tomorrow.S02E16.1080p.HDTV.X264-DIMENSION.torrent3.05 GBDimension.404.S01E03.Bob.HULU.WEBRip.x264-RBB.mp4.torrent183.31 MBage 2 yearsChicago.PD.S01.Season.1.Complete.1080p.WEB-DL.DD5.1.H.264 16 torrent download locations Download Direct Chicago.PD.S01.Season.1.Complete.1080p.WEB-DL.DD5.1.H.264 Sponsored Link thepiratebay.se Chicago.PD.S01.Season.1.Complete.1080p.WEB-DL.DD5.1.H.264 Video HD - TV shows4 days torlock.com Chicago PD S01 Season 1 Complete 1080p WEB-DL DD5 1 H 264 Television1 day yourbittorrent.com Chicago PD S01 Season 1 Complete 1080p WEB-DL DD5 1 H 264 Television1 day torrent.cd Chicago.PD.S01.Season.1.Complete.1080p.WEB-DL.DD5.1.H.264 movies - hd - tv shows23 hours monova.org Chicago PD S01 Season 1 Complete 1080p WEB-DL DD5 1 H 264 TV1 day idope.se Chicago.PD.S01.Season.1.Complete.1080p.WEB-DL.DD5.1.H.264 TV20 hours isohunt.to Chicago PD S01 Season 1 Complete 1080p WEB-DL DD5 1 H 264 series & tv4 hours seedpeer.eu Chicago PD S01 Season 1 Complete 1080p WEB-DL DD5 1 H 264 Other Others2 days torrentdownloads.me Chicago PD S01 Season 1 Complete 1080p WEB-DL DD5 1 H 264 Movies23 hours torrentfunk.com Chicago PD S01 Season 1 Complete 1080p WEB-DL DD5 1 H 264 Television1 day limetorrents.cc Chicago-PD-S01-Season-1-Complete-1080p-WEB-DL-DD5-1-H-264 TV shows3 days magnetdl.com Chicago.PD.S01.Season.1.Complete.1080p.WEB-DL.DD5.1.H.264 TV6 days bittorrent.am Chicago.PD.S01.Season.1.Complete.1080p.WEB-DL.DD5.1.H.264 Series TV Shows5 hours torrentdownload.ch Chicago-PD-S01-Season-1-Complete-1080p-WEB-DL-DD5-1-H-264 TV shows1 day btdb.in Chicago.PD.S01.Season.1.Complete.1080p.WEB-DL.DD5.1.H.264 19 days torrentproject.se Chicago PD S01 Season 1 Complete 1080p WEB DL DD5 1 H 264 Video Tv1 day Using BitTorrent is legal, downloading copyrighted material isnt ctfile.comICP10221024-1 31010102002062400-032-5516 1 Verify as a good torrent (1) Fake 0 Password 0 Low quality 0 Virus 0 We need your feedback! Please vote, it's quick and anonymous- Season 2>>other11 months ago14 Gb00Chicago P.DSample info: Duration: 00:42:59.93, start: 0.000000, bitrate: 5439 kb/s Stream #0:0: Subtitle: subrip (default) Stream #0:1(eng): Video: h264 (High), yuv420p, 1920x1080 [SAR 1:1 DAR 16:9], 23.98 fps, 23.98 tbr, 1k tbn, 2k tbc (default) Stream #0:2(eng): Audio: ac3, 48000 Hz, 5.1(side), s16, 384 kb/s (default)Size: 24 GBTorrent Contents Chicago.PD.S01.Season.1.Complete.1080p.WEB-DL.DD5.1.H.264 Chicago.PD.S01E01.1080p.WEB-DL.DD5.1.H.264-KiNGS.mkv1,673 MB Chicago.PD.S01E02.1080p.WEB-DL.DD5.1.H.264-KiNGS.mkv1,637 MB Chicago.PD.S01E03.1080p.WEB-DL.DD5.1.H.264-KiNGS.mkv1,621 MB Chicago.PD.S01E04.1080p.WEB-DL.DD5.1.H.264-KiNGS.mkv1,646 MB Chicago.PD.S01E05.1080p.WEB-DL.DD5.1.H.264-KiNGS.mkv1,642 MB Chicago.PD.S01E06.1080p.WEB-DL.DD5.1.H.264-KiNGS.mkv1,642 MB Chicago.PD.S01E07.1080p.WEB-DL.DD5.1.H.264-KiNGS.mkv1,632 MB Chicago.PD.S01E08.1080p.WEB-DL.DD5.1.H.264-KiNGS.mkv1,615 MB Chicago.PD.S01E09.1080p.WEB-DL.DD5.1.H.264-KiNGS.mkv1,650 MB Chicago.PD.S01E10.1080p.WEB-DL.DD5.1.H.264-KiNGS.mkv1,613 MB Chicago.PD.S01E11.1080p.WEB-DL.DD5.1.H.264-KiNGS.mkv1,623 MB Chicago.PD.S01E12.1080p.WEB-DL.DD5.1.H.264-KiNGS.mkv1,651 MB Chicago.PD.S01E13.1080p.WEB-DL.DD5.1.H.264-KiNGS.mkv1,571 MB Chicago.PD.S01E14.1080p.WEB-DL.DD5.1.H.264-KiNGS.mkv1,644 MB Chicago.PD.S01E15.1080p.WEB-DL.DD5.1.H.264-KiNGS.mkv1,625 MB Please note that this page does not hosts or makes available any of the listed filenames1a7bc090bb3d3c581e8f05ef2399d42b645f5b6c 1 50.12 KB51,321 Bytes 2017-03-12 03:51:10 6 2017-03-13 01:16:08 f44c5aec2f

    tv resolution 720p vs 1080p laptop
    a good day to die hard 1080p torrent
    harry potter 3 720p izle film
    le projet blair witch 720p dimensions
    kac wawa 720p chomikuj 18
    ricardo electro tv led 42 samsung 1080p
    difference between 1080i and 1080p for gaming
    gizemli adaya yolculuk 2 720p tv
    blu ray hd songs 1080p daily mation
    john carter tamil dubbed 720p movies


  • Commentaires

    Aucun commentaire pour le moment

    Suivre le flux RSS des commentaires


    Ajouter un commentaire

    Nom / Pseudo :

    E-mail (facultatif) :

    Site Web (facultatif) :

    Commentaire :